Софт-Портал

скачать торрент красные хвосты 2012

Рейтинг: 4.8/5.0 (10 проголосовавших)

Категория: Торрент-файлы

Описание

Скачать фильм Красные xвосты

Скачать фильм Красные xвосты / Red Tails (Энтони Хемингуэй) [2012, боевик, драма, приключения, военный, история, DVDRip] VO - торрент

Скачать через торрент фильм вы можете, нажав на синюю кнопку. Фильм доступен на нашем торрент-трекере бесплатно, без регистрации и смс.

Скачать торрент красные хвосты 2012Перевод: Любительский (одноголосый), cубтитры: отсутствуют

Формат: DVDRip, AVI, XviD, MP3

Режиссер: Энтони Хемингуэй

История молодого чернокожего пилота, который превозмогая расизм и неприязнь, сумел сплотить братьев по крови и создал первый в истории воздушный батальон, состоящий исключительно из афроамериканцев.

Скачать торрент красные хвосты 2012 Скачать торрент красные хвосты 2012

645 kbps avg, 0.26 bit/pixel

Аудио: 44.100 kHz, MPEG Layer 3, 2 ch,

Как известно, «на протяжении Второй мировой войны летная школа в Таскиги подготовила и выпустила 450 цветных пилотов, которые были награждены 850-ю орденами и медалями (в том числе 95-ю крестами за летные заслуги). 66 пилотов из Таскиги геройски погибли в боях с фашистами. 332-я летная группа из Таскиги сбила 261 вражеский самолет. За всю войну 332-я группа Таскиги не потеряла ни одного сопровождаемого бомбардировщика». О такой боевой славе нужно было снять действительно достойное кино.

скачать торрент красные хвосты 2012:

  • скачать
  • скачать
  • Другие статьи

    Красные хвосты (2012) скачать торрент бесплатно

    Красные хвосты (2012)

    Скачать торрент красные хвосты 2012

    Во время Второй Мировой войны в небе Европы наблюдалась неспокойная воздушная обстановка. В 1944 году шла серьезная крупномасштабная война, уносящая за собой много невинных жизней. Большие потери ВВС США заставили командование пересмотреть принципы ведения боя и взгляды на участие в боях чернокожих солдат. Все они были зачислены в члены особой экспериментальной программы, а потому во время прохождения курса обучения ни раз сталкивались с пренебрежительным отношением к себе со стороны окружающих людей и признаками расизма. Отныне пришло время изменений, а потому пилотам, которые не имели никакого опыта за плечами, были выданы старые самолеты. Им был отдан приказ – лететь в Италию.

    Все говорит о том, что противостоять на равных врагам он не способны, плюс ко всему, вся злость молодых солдат и неприязнь окружающих негативным образом отражается на моральном духе пилотов. Только благодаря чуткому руководству полковника Балларда и майора Станса чернокожие пилоты смогли пройти достойно через массу испытаний и доказать всем, что способны на рискованные поступки и великие достижения. Им предстоит принять участие в боях, противостоять немцам и доказать ВВС, что лучших чем они, стоит еще поискать.

    Также рекомендуем вам скачать фильм Лиззи Магуайр, чтобы посмотреть его после просмотра данного фильма.

    Скачать фильм Красные хвосты (2012) через торрент

    Красные хвосты

    Оригинальное название: Red Tails

    Продолжительность: 120 мин. / 02:00

    Скачать фильм «Красные хвосты» через торрент бесплатно

    Перевод: Любительский одноголосый

    Субтитры: Русские, английские

    Качество: BDRip (AVC)

    Видео: MPEG-4 AVC, 2399 Кбит/с, 1024x426

    Звук: Русский, английский (AC3, 6 ch, 448 Кбит/с)

    Видео: Идентификатор : 1 Формат : AVC Формат/Информация : Advanced Video Codec Профиль формата : High@L4.1 Параметр CABAC формата : Да Параметр ReFrames формата : 10 кадров Идентификатор кодека : V_MPEG4/ISO/AVC Продолжительность : 2 ч. 5 м. Битрейт : 2399 Кбит/сек Ширина : 1024 пикс. Высота : 426 пикс. Соотношение сторон : 2,40:1 Частота кадров : 23,976 кадр/сек Цветовое пространство : YUV Подвыборка цветности : 4:2:0 Битовая глубина : 8 бит Тип развёртки : Прогрессивная Бит/(Пиксели*Кадры) : 0.229 Размер потока : 2,04 Гбайт (71%) Заголовок : Rip by Enigma-Vladislav71 Библиотека кодирования : x264 core 129 r2245 bc13772 Настройки программы : cabac=1 / ref=10 / deblock=1:-3:-3 / analyse=0x3:0x133 / me=umh / subme=11 / psy=1 / psy_rd=1.00:0.00 / mixed_ref=1 / me_range=48 / chroma_me=1 / trellis=2 / 8x8dct=1 / cqm=0 / deadzone=21,11 / fast_pskip=0 / chroma_qp_offset=-2 / threads=3 / lookahead_threads=1 / sliced_threads=0 / nr=0 / decimate=0 / interlaced=0 / bluray_compat=0 / constrained_intra=0 / bframes=8 / b_pyramid=2 / b_adapt=2 / b_bias=0 / direct=3 / weightb=1 / open_gop=0 / weightp=2 / keyint=240 / keyint_min=23 / scenecut=40 / intra_refresh=0 / rc_lookahead=40 / rc=2pass / mbtree=1 / bitrate=2399 / ratetol=1.0 / qcomp=0.60 / qpmin=10 / qpmax=51 / qpstep=4 / cplxblur=20.0 / qblur=0.5 / ip_ratio=1.40 / aq=2:1.00 Язык : English

    Аудио #1: Идентификатор : 2 Формат : AC-3 Формат/Информация : Audio Coding 3 Расширение режима : CM (complete main) Идентификатор кодека : A_AC3 Продолжительность : 2 ч. 5 м. Вид битрейта : Постоянный Битрейт : 448 Кбит/сек Каналы : 6 каналов Расположение каналов : Front: L C R, Side: L R, LFE Частота : 48,0 КГц Битовая глубина : 16 бит Метод сжатия : С потерями Размер потока : 401 Мбайт (14%) Язык : Russian

    Аудио #2: Идентификатор : 3 Формат : AC-3 Формат/Информация : Audio Coding 3 Расширение режима : CM (complete main) Идентификатор кодека : A_AC3 Продолжительность : 2 ч. 5 м. Вид битрейта : Постоянный Битрейт : 448 Кбит/сек Каналы : 6 каналов Расположение каналов : Front: L C R, Side: L R, LFE Частота : 48,0 КГц Битовая глубина : 16 бит Метод сжатия : С потерями Размер потока : 401 Мбайт (14%) Язык : English

    Скачать торрент красные хвосты 2012 Скачать торрент красные хвосты 2012

    Перевод: Одноголосый закадровый

    Качество: BDRip 1080p

    Видео: 1920x800 (2.40:1), 23.976 fps, AVC, 4 430 Kbps

    Звук: Russian:48 kHz, AC3 Dolby Digital, 3/2 (L,C,R,l,r) + LFE ch,

    Субтитры: English (srt)

    Видео: Идентификатор : 1 Формат : AVC Формат/Информация : Advanced Video Codec Профиль формата : High@L4.1 Параметр CABAC формата : Да Параметр ReFrames формата : 5 кадров Идентификатор кодека : V_MPEG4/ISO/AVC Продолжительность : 2 ч. 5 м. Битрейт : 4430 Кбит/сек Ширина : 1920 пикс. Высота : 800 пикс. Соотношение сторон : 2,40:1 Частота кадров : 23,976 кадр/сек Цветовое пространство : YUV Подвыборка цветности : 4:2:0 Битовая глубина : 8 бит Тип развёртки : Прогрессивная Бит/(Пиксели*Кадры) : 0.120 Размер потока : 3,78 Гбайт (89%) Библиотека кодирования : x264 core 122 r2184 5c85e0a Настройки программы : cabac=1 / ref=5 / deblock=1:-3:-2 / analyse=0x3:0x133 / me=umh / subme=10 / psy=1 / psy_rd=0.90:0.10 / mixed_ref=1 / me_range=48 / chroma_me=1 / trellis=2 / 8x8dct=1 / cqm=0 / deadzone=21,11 / fast_pskip=0 / chroma_qp_offset=-6 / threads=6 / sliced_threads=0 / nr=0 / decimate=1 / interlaced=0 / bluray_compat=0 / constrained_intra=0 / bframes=8 / b_pyramid=2 / b_adapt=2 / b_bias=0 / direct=3 / weightb=1 / open_gop=0 / weightp=2 / keyint=240 / keyint_min=23 / scenecut=40 / intra_refresh=0 / rc=2pass / mbtree=0 / bitrate=4430 / ratetol=1.0 / qcomp=0.70 / qpmin=0 / qpmax=69 / qpstep=4 / cplxblur=20.0 / qblur=0.5 / ip_ratio=1.40 / pb_ratio=1.20 / aq=2:0.80 Язык : English Основные цвета : BT.709-5, BT.1361, IEC 61966-2-4, SMPTE RP177 Характеристики трансфера : BT.709-5, BT.1361 Коэффициенты матрицы : BT.709-5, BT.1361, IEC 61966-2-4 709, SMPTE RP177

    Аудио: Идентификатор : 2 Формат : AC-3 Формат/Информация : Audio Coding 3 Расширение режима : CM (complete main) Идентификатор кодека : A_AC3 Продолжительность : 2 ч. 5 м. Вид битрейта : Постоянный Битрейт : 448 Кбит/сек Каналы : 6 каналов Расположение каналов : Front: L C R, Side: L R, LFE Частота : 48,0 КГц Битовая глубина : 16 бит Метод сжатия : С потерями Размер потока : 401 Мбайт (9%) Заголовок : VO Язык : Russian

    Красные xвосты

    Красные xвосты / Red Tails (2012)

    Скачать торрент красные хвосты 2012

    Название: Красные xвосты

    Оригинальное название: Red Tails

    Год выхода: 2012

    Жанр: боевик, драма, приключения, военный, история

    Режиссер: Энтони Хемингуэй

    В ролях: Терренс Ховард, Нэйт Паркер, Тристан Уайлдс, Элайджа Келли, Лесли Одом мл., Кевин Филлипс, Метод Мэн, Ли Тергесен, Даниэла Руа, Мэттью Марш

    Перевод: Любительский (одноголосый)

    Скачать торрент красные хвосты 2012

    Скачать торрент красные хвосты 2012

    Скачать торрент красные хвосты 2012

    Похожие новости Комментарии (0)

    Посетители, находящиеся в группе Гости, не могут оставлять комментарии к данной публикации.

    Скачать Красные xвосты через торрент в хорошем качестве скачать фильм Красные xвосты 2012 торрент

    Красные xвосты через торрент

    Скачать торрент красные хвосты 2012

    Описание фильма Красные xвосты Красные xвосты трейлер Скачать Красные xвосты через торрент в хорошем качестве

    Аудио: битрейт: 128 кб/с

    Скачать торрент красные хвосты 2012 Скачать торрент красные хвосты 2012

    Аудио: 128 kb/s (2 ch)

    Скачать торрент красные хвосты 2012 Скачать торрент красные хвосты 2012

    Аудио: Audio1: Russian: MP3, 224 kb/s (2 ch)

    Audio2: English: MP3, 224 kb/s (2 ch)

    Скачать торрент красные хвосты 2012 Скачать торрент красные хвосты 2012

    Аудио: 224 kb/s (2 ch)

    Скачать торрент красные хвосты 2012 Скачать торрент красные хвосты 2012

    Аудио: 48000 Hz, 6 каналов, 448 kbit/s

    Скачать торрент красные хвосты 2012 Скачать торрент красные хвосты 2012

    Аудио: Audio1: Russian: MP3, 48 kHz, 224 kbps, 2 ch

    Audio2: English: MP3, 48 kHz, 224 kbps, 2 ch

    Скачать торрент красные хвосты 2012 Скачать торрент красные хвосты 2012

    2040 kbps avg, 0.39 bit/pixel

    Аудио: 48 kHz, AC3 Dolby Digital, 3/2 (L,C,R,l,r) + LFE ch,

    Скачать торрент красные хвосты 2012 Скачать торрент красные хвосты 2012

    Аудио: Аудио1: Русский (AC3, 6 ch, 448 Кбит/с),

    Аудио2: английский (AC3, 6 ch, 448 Кбит/с)

    Скачать торрент красные хвосты 2012 Скачать торрент красные хвосты 2012

    Аудио: 48 kHz, AC3 Dolby Digital, 3/2 (L,C,R,l,r) + LFE ch,

    Скачать торрент красные хвосты 2012 Скачать торрент красные хвосты 2012

    Аудио: Аудио#1: Russian: AC3, (6 ch), 448 kb/s|Любительский (одноголосый)

    Аудио#2: English: DTS, (6 ch), 1510 kb/s

    Скачать торрент красные хвосты 2012

    Аудио: Аудио 1: Russian / Dolby Digital Audio / 5.1 / 48 kHz / 448 kbps / DN -4dB

    Аудио 2: English / Dolby Digital Audio / 5.1 / 48 kHz / 448 kbps

    Аудио 3: French / Dolby Digital Audio / 5.1 / 48 kHz / 448 kbps

    Аудио 4: Spanish / Dolby Digital Audio

    Скачать торрент красные хвосты 2012 Скачать торрент красные хвосты 2012

    Вот значит, штабное командование решает отстранить чернокожих от полетов, типа они ''выполняют всю грязную работу'', от них толку никакого, дисциплина хромает (полный бред). На мой взгляд, негры злые и отчаяные парни, они легко переносят страх (Как русские)), и делают свое дело. Были среди них талантливые бойцы, и были подвиги и свои герои, но, командование не очень охотно распространялось об этом, и подвиги чаще всего замалчивали.

    Поэтому, негров на самом деле эксплуатировали по полной, во всех родах войск, для грязной работы, это разведки боем, штурмовки и прочее, их не жалели, и белые прикрывали ими свои задницы, - это так по Американски, использовать других для достижения своих целей, поэтому нигеры огребали больше всех, как и представители других рас, -индейцы тоже. (индейцев до сих пор угнетают и принижают).

    По фильму. Ну, не поверю я, что чернокожий парень подкатил к симпатичной Итальянке и началась у них любовь-морковь. Итальянцы консервативный народ, в своих убеждениях, вере и традициях, они относятся серьезно и с уважением к своему происхождению и крови предков. Поэтому, ну бред это все, тем более, для того времени.

    Один из пилотов на своем p-51, решил атаковать германский военный корабль, практически уничтожив его своими 6Х12, 7 мм. Ну, это фантазия, в реале так не бывает, а вот корабль, своими пво, мог сбить самолет с легкостью, такой риск если не самоубийство, то как минимум трибунал.

    Раненый пилот на поврежденном самолете идет на посадку, пытаясь выпустить шасси, дергает за ручку фонаря и паникует, что шасси не выходят, оно и понятно, ведь ручка выпуска шасси, на p-51 (как почти на всех самолетах), находятся с левой стороны кабины пилота, в самом низу. К тому же, при неудачной посадке, самолет перевернулся несколько раз и загорелся, учитывая то, как сильно топливом залило кабину, пилот бы основательно прожарился до хрустящей корочки.